logo

Beyond The Lights 2014 720p HDCAM FIRST ENG x264 Pimp4003

  • Category Movies
  • Type Divx/Xvid
  • Language English
  • Total size 1.9 GB
  • Uploaded By pimp4003
  • Downloads 2034
  • Last checked 2 months ago
  • Date uploaded 3 years ago
  • Seeders 0
  • Leechers 0

Beyond the Lights

Drama

A talented young musician on the brink of super stardom struggles with the pressure of her new-found success.

Infohash : A3A3FA4CB1C43E66AE29B6EE253863234EBFFE48

FOR SCREENSHOTS AND FASTER DOWNLOAD SPEEDS PLEASE VISIT.....http://pimp4003.net/ SOURCE IS PIMP4003....THE SOURCE IS PIMP4003.....PRETTY GOOD CAM...VIDEO IS PRETTY GOOD NOT BAD FOR A CAM....DID SOME ADJUSTMENTS HERE AND THERE...AUDIO NOT BAD...DID A BIT OF WORK....ENJOY........ENJOY

PIMP THE ONE AND ONLY PIMPSTER.....PRESENTS



Download Beyond The Lights 2014 720p HDCAM FIRST ENG x264 Pimp4003 Torrent

http://www.facebook.com/pimp4003

http://twitter.com/PIMP4003DOTNET

Download Beyond The Lights 2014 720p HDCAM FIRST ENG x264 Pimp4003 Torrent

Beyond The Lights 2014 720p HDCAM FIRST ENG x264 Pimp4003

The pressures of fame have superstar singer Noni on the edge, until she meets Kaz, a young cop who works to help her find the courage to develop her own voice and break free to become the artist she was meant to be.

Director: Gina Prince-Bythewood
Writer: Gina Prince-Bythewood
Stars: Gugu Mbatha-Raw, Nate Parker, Minnie Driver | See full cast and crew »

ENJOY

PIMP4003

Video
ID                                       : 1
Format                                   : MPEG-4 Visual
Format profile                           : [email protected]
Format settings, BVOP                    : No
Format settings, QPel                    : No
Format settings, GMC                     : No warppoints
Format settings, Matrix                  : Default (H.263)
Codec ID                                 : 20
Duration                                 : 1h 49mn
Bit rate                                 : 2 395 Kbps
Width                                    : 1 280 pixels
Height                                   : 536 pixels
Display aspect ratio                     : 2.40:1
Frame rate mode                          : Variable
Frame rate                               : 59.940 fps
Minimum frame rate                       : 59.916 fps
Maximum frame rate                       : 60.157 fps
Color space                              : YUV
Chroma subsampling                       : 4:2:0
Bit depth                                : 8 bits
Scan type                                : Progressive
Compression mode                         : Lossy
Bits/(Pixel*Frame)                       : 0.058
Stream size                              : 1.83 GiB (95%)
Writing library                          : ZJMedia MPEG Encoder

Audio
ID                                       : 2
Format                                   : AAC
Format/Info                              : Advanced Audio Codec
Format profile                           : LC
Codec ID                                 : 40
Duration                                 : 1h 49mn
Bit rate mode                            : Variable
Bit rate                                 : 128 Kbps
Channel(s)                               : 2 channels
Channel positions                        : Front: L R
Sampling rate                            : 48.0 KHz
Compression mode                         : Lossy
Stream size                              : 100 MiB (5%)

Download Beyond The Lights 2014 720p HDCAM FIRST ENG x264 Pimp4003 Torrent

Files:

  • [WWW.PIMP4003.NET] Beyond The Lights 2014 720p HDCAM FIRST ENG x164 Pimp4003.mp4 (1.9 GB)
  • Torrent Downloaded From Pimp4003.net.txt (0.1 KB)

There are currently no comments. Feel free to leave one :)

Code:

  • udp://open.demonii.com:1337/announce
  • http://inferno.demonoid.ph:3389/announce
  • http://tracker1.wasabii.com.tw:6969/announce
  • udp://open.demonii.com:1337/announce
  • udp://tracker.istole.it:80/announce
  • udp://tracker.publicbt.com:80/announce
  • udp://tracker.openbittorrent.com:80/announce
  • udp://9.rarbg.com:2710/announce